#TITLE:Anymotion;
#SUBTITLE:;
#ARTIST:Hyori Lee;
#TITLETRANSLIT:Anymotion;
#SUBTITLETRANSLIT:;
#ARTISTTRANSLIT:Hyori Lee;
#CREDIT:;
#BANNER:Anymotion-bn.png;
#BACKGROUND:Anymotion-bg.png;
#LYRICSPATH:;
#CDTITLE:pm4cd.png;
#MUSIC:Anymotion.mp3;
#OFFSET:0.060;
#SAMPLESTART:44.969;
#SAMPLELENGTH:20.000;
#SELECTABLE:YES;
#BPMS:0.000=134.140;
#STOPS:;
#BGCHANGES:;
// cache tags:
#FIRSTBEAT:0.250;
#LASTBEAT:466.750;
#SONGFILENAME:Songs/Music V.I.P ^_^/Anymotion/Anymotion.sm;
#HASMUSIC:1;
#HASBANNER:1;
#MUSICLENGTH:211.591;
// end cache tags

//---------------dance-single - ----------------
#NOTES:
     dance-single:
     :
     Hard:
     9:
     0.843,0.827,1.000,0.217,1.000,790.000,318.000,46.000,0.000,126.000:
0000
2002
0000
0000
0000
0000
0000
0000
0000
0000
0000
0000
0000
0000
0000
0000
,
0000
3003
0000
1000
0000
1000
0000
1011
0000
1000
0000
1000
0000
1000
0000
1011
,
0000
1000
0000
1000
0000
1000
0000
1011
0000
1000
0000
1000
0000
1000
0000
1011
,
0000
1000
0000
0001
0000
0001
0000
1101
0000
0001
0000
0001
0000
0001
0000
1101
,
0000
0001
0000
1011
0000
0100
0000
0010
0000
0100
0000
1000
0000
0100
0000
0000
,
0000
0000
0000
1101
0000
0001
0000
1101
0000
0001
0000
0001
0000
0001
0000
1101
,
0000
0001
0000
0001
0000
0001
0000
0111
0000
0001
0000
0001
0000
0001
0000
0111
,
0000
0001
0000
0001
0000
0001
0000
1011
0000
0001
0000
0001
0000
0001
0000
1011
,
0000
0002
0000
0000
0000
0000
0000
0000
0000
0000
0000
0000
0000
0000
0000
0000
,
0000
0003
0000
1010
0000
1000
0000
1010
0000
1000
0000
1010
0000
1000
0000
1010
,
0000
1000
0000
1010
0000
1000
0000
1010
0000
1000
0000
1010
0000
1000
0000
1010
,
0000
1010
0010
1010
0000
1000
0000
1010
0000
1000
0000
1010
0000
1000
0000
1010
,
0000
1000
0000
1010
0000
1000
0000
1010
0000
1000
0000
1010
0000
1000
0000
1010
,
0000
1010
0010
1010
0000
0001
0000
1001
0000
0001
0000
1001
0000
0001
0000
1001
,
0000
0001
0000
1001
0000
0001
0000
1001
0000
0001
0000
1001
0000
0001
0000
1001
,
0000
0001
1000
1001
1000
0001
0000
1001
0000
0001
0000
1001
0000
0001
0000
1001
,
0000
0001
0000
0220
0000
0000
0000
0000
0000
0000
0000
0000
0000
0000
0000
0000
,
0000
0330
0000
1110
0000
0000
0000
0100
0000
1100
0000
0000
0000
0000
0000
0100
,
0000
1000
0000
0111
0000
0000
0000
0001
0000
0110
0000
0000
0000
0000
0000
1000
,
0000
0000
0000
1101
0000
0000
0000
1000
0000
0110
0000
0000
0000
0000
0000
0001
,
0000
1000
0000
1101
0000
0010
0000
1001
0000
0110
0000
1001
0000
0010
0000
1010
,
0000
0100
0000
1110
0000
0000
0000
1000
0000
0110
0000
0000
0000
0000
0000
0010
,
0000
1000
0000
0111
0000
0000
0000
1000
0000
0110
0000
0000
0000
0000
0000
1000
,
0000
0000
0000
0111
0000
0000
0000
1000
0000
0101
0000
0000
0000
0000
0000
0010
,
0000
1000
0000
0221
0000
0000
0000
0000
0000
0000
0000
0000
0000
0000
0000
0000
,
0000
0330
0000
1001
0000
0001
0000
0101
0000
1001
0000
0001
0000
0001
0000
0101
,
0000
0101
0000
1001
0000
0001
0000
0101
0000
1001
0000
0001
0000
0001
0000
0101
,
0000
0001
0000
1001
0000
0001
0000
0101
0000
1001
0000
0001
0000
0001
0000
0101
,
0000
0101
0000
1001
0000
0001
0000
0101
0000
1001
0000
0001
0000
0001
0000
0101
,
0000
0001
0000
1011
0000
1000
0000
1001
0000
1110
0000
1000
0000
1000
0000
1001
,
0000
1001
0000
1011
0000
1000
0000
1001
0000
1110
0000
1000
0000
1000
0000
1001
,
0000
1000
0000
1011
0000
1000
0000
1001
0000
1110
0000
1000
0000
1000
0000
1001
,
0000
1001
0000
0000
0000
2012
0000
0000
0000
0000
0000
0000
0000
0000
0000
0000
,
0000
0000
3003
0110
0000
1000
0000
0001
0000
1000
0000
0100
0000
0010
0000
1000
,
0000
0001
0000
0110
0000
0100
0000
1001
0000
0011
0000
0001
0000
0100
0000
1100
,
0000
1001
0000
0110
0000
0001
0000
1001
0000
0110
0000
0001
0000
0100
0000
0101
,
0000
0001
0000
1100
0000
0010
0000
0101
0000
1100
0000
1000
0000
0001
0000
1010
,
0000
0101
0000
1010
0000
0010
0000
0011
0000
1100
0000
0010
0000
1000
0000
0101
,
0000
0001
0010
1100
0000
0001
0000
0110
0000
1100
0000
0010
0000
0100
0000
0011
,
0000
1100
0000
0110
0000
0010
0000
0011
0000
1100
0000
0010
0000
0001
0000
0101
,
0000
0100
0000
1100
0000
0010
0000
1001
0000
0110
0000
0001
0000
0100
0000
1010
,
0000
1010
0000
0202
0000
0000
0000
0000
0000
0000
0000
0000
0000
0000
0000
0000
,
0000
0000
0303
1011
0000
0000
0000
0001
0000
1010
0000
0000
0000
0000
0000
0100
,
0000
0001
0000
1011
0000
0000
0000
0010
0000
1100
0000
0000
0000
0000
0000
0001
,
0000
0000
0000
1101
0000
0000
0000
0010
0000
0011
0000
0000
0000
0000
0000
0010
,
0000
0100
0000
1110
0000
0001
0000
1010
0000
0101
0000
1010
0000
0010
0000
0011
,
0000
0100
0000
1011
0000
0000
0000
0100
0000
0011
0000
0000
0000
0000
0000
0001
,
0000
1000
0000
1011
0000
0000
0000
0010
0000
0101
0000
0000
0000
0000
0000
0010
,
0000
0000
0000
1101
0000
0000
0000
0001
0000
1001
0000
0000
0000
0000
0000
0001
,
0000
0010
0000
2102
0000
0010
0000
0110
0000
0100
0000
0000
0000
0000
0000
0010
,
0000
0000
3003
0111
0000
0010
0000
1110
0000
0001
0000
0110
0000
1000
0000
1101
,
0000
0010
0000
0111
0000
0100
0000
1011
0000
0001
0000
1100
0000
0010
0000
1101
,
0000
0000
0000
1011
0000
0001
0000
1110
0000
1000
0000
0101
0000
0010
0000
1110
,
0000
0001
0000
1101
0000
0100
0000
1110
0000
0100
0000
0110
0000
0001
0000
1011
,
0000
0001
0000
0111
0000
1000
0000
1101
0000
1000
0000
1001
0000
1000
0000
1011
,
0000
0100
0000
0111
0000
0001
0000
1110
0000
0100
0000
0110
0000
1000
0000
1011
,
0000
1000
0000
0110
0000
0001
0000
1101
0000
1000
0000
0110
0000
0010
0000
1101
,
0000
0100
0000
1000
0000
2120
0000
0000
0000
0000
0000
0000
0000
0000
0000
0000
,
0000
0000
3030
0001
0000
0100
0000
0011
0000
0010
0000
0100
0000
1000
0000
0110
,
0000
1000
0000
0001
0000
1000
0000
0011
0000
0100
0000
1000
0000
0010
0000
1100
,
0000
0010
0000
0001
0000
1000
0000
0011
0000
0001
0000
1000
0000
0010
0000
1100
,
0000
1000
0000
0001
0000
0100
0000
0011
0000
0000
0000
2000
0000
0000
0000
0000
,
0000
0000
0000
3001
0000
0010
0000
0100
0000
1000
0000
0100
0000
0010
0000
0100
,
0000
1000
0000
0100
0000
0010
0000
0001
0000
0010
0000
0100
0000
0010
0000
0001
,
0000
0010
0000
0100
0000
1000
0000
0100
0000
0010
0000
0001
0000
0010
0000
0100
,
0000
1000
0000
0100
0000
0010
0000
0100
0000
1000
0000
0100
0000
0010
0000
0001
,
0000
0000
0000
0001
0000
0001
0000
0001
0000
0001
0000
0002
0000
0000
0000
0000
,
0000
0000
0000
1013
0000
0010
0000
0101
0000
1010
0000
0001
0000
0010
0000
1001
,
0000
1010
0000
0101
0000
0010
0000
1001
0000
0110
0000
0001
0000
0010
0000
1001
,
0000
0010
0000
0101
0000
0010
0000
1001
0000
0110
0000
0001
0000
0010
0000
1001
,
0000
1010
0000
1010
0000
0100
0000
1001
0000
0110
0000
1000
0000
0100
0000
1001
,
0000
0100
0000
1010
0000
0100
0000
1001
0000
0110
0000
1000
0000
0100
0000
1001
,
0000
0101
0000
1010
0000
0100
0000
1001
0000
0110
0000
1000
0000
0100
0000
1001
,
0000
0100
0000
1010
0000
0100
0000
1001
0000
0110
0000
1000
0000
0100
0000
1001
,
0000
1001
0000
2020
0000
0000
0000
0000
0000
0000
0000
0000
0000
0000
0000
0000
,
0000
0000
3030
0201
0000
0001
0000
0001
0000
0001
0000
1320
0000
1000
0000
1000
,
0000
1000
0000
0132
0000
0100
0000
0100
0000
0100
0000
1023
0000
1000
0000
1000
,
0000
1000
1000
0231
0000
0001
0000
0001
0000
0001
0000
2310
0000
0010
0000
0010
,
0000
0010
0000
3201
0000
0001
0000
0001
0000
0001
0000
1320
0000
1000
0000
1000
,
0000
1000
0000
0132
0000
0100
0000
0100
0000
0100
0000
2103
0000
0100
0000
0100
,
0000
0100
0000
3021
0000
0001
0000
0001
0000
0001
0000
1230
0000
1000
0000
1000
,
0000
1000
0000
0321
0000
0001
0000
0001
0000
0001
0000
2130
0000
0100
0000
0100
,
0000
0100
0000
3022
0000
1000
0000
0100
0000
1000
0000
0100
0000
1000
0000
0100
,
0033
2020
0000
0000
0000
0100
0000
0001
0000
0100
0000
0001
0000
0100
0000
0001
,
0000
3232
0000
0000
0000
0000
0000
0000
0000
0000
0303
1110
0000
0001
0000
0100
,
0000
1100
0000
0001
0000
1000
0000
0100
0000
1000
0000
0111
0000
1000
0000
0001
,
0000
0110
0000
0001
0000
0100
0000
1000
0000
0010
0000
1101
0000
0010
0000
1000
,
0000
0110
0000
0001
0000
0100
0000
0001
0000
1000
0000
1101
0000
0010
0000
1001
,
0000
0101
0000
1010
0000
0010
0000
1001
0000
0100
0000
1110
0000
0000
0000
1000
,
0000
0110
0000
0001
0000
1000
0000
0010
0000
1000
0000
0111
0000
0010
0000
1000
,
0000
0110
0000
1000
0000
0010
0000
1000
0000
0010
0000
0111
0000
0010
0000
1000
,
0000
0101
0000
0010
0000
1000
0000
0010
0000
1000
0000
0221
0000
0000
0000
0000
,
0000
0000
0000
0000
0000
0000
0000
0000
0000
0000
0330
0101
0000
0001
0000
1001
,
0000
0011
0000
0001
0000
0001
0000
0101
0000
0101
0000
0011
0000
0001
0000
1001
,
0000
0101
0000
0001
0000
0001
0000
0011
0000
0001
0000
1001
0000
0001
0000
0011
,
0000
1001
0000
0001
0000
0001
0000
0011
0000
0011
0000
1001
0000
0001
0000
1001
,
0000
0101
0000
0001
0000
0001
0000
0011
0000
0001
0000
0111
0000
0100
0000
1100
,
0000
0111
0000
0100
0000
0100
0000
0101
0000
0101
0000
1101
0000
0100
0000
0110
,
0000
1110
0000
0100
0000
0100
0000
0101
0000
0100
0000
1101
0000
0100
0000
0101
,
0000
0111
0000
0100
0000
0100
0000
0110
0000
0110
0000
0000
0000
0100
0000
2100
,
0000
0000
0000
0000
0000
0000
0000
0000
0000
3000
0000
1011
0000
1000
0000
0111
,
0000
1000
0000
0011
0000
1000
0000
0111
0000
0100
0000
1011
0000
1000
0000
0111
,
0000
1000
0000
0011
0000
1000
0000
0111
0000
0000
0000
1011
0000
1000
0000
0111
,
0000
1000
0000
0011
0000
1000
0000
0111
0000
0100
0000
1011
0000
1000
0000
0111
,
0000
1000
0000
0011
0000
1000
0000
0111
0000
1000
0000
1011
0000
1000
0000
0111
,
0000
1000
0000
0011
0000
1000
0000
0111
0000
0100
0000
1011
0000
1000
0000
0111
,
0000
1000
0000
0011
0000
1000
0000
0111
0000
1000
0000
0011
0000
1000
0000
0111
,
0000
1000
0000
0011
0000
1000
0000
0111
0000
0100
0000
2100
0000
0000
0000
0000
,
0000
0000
0000
0000
0000
0000
0000
0000
0000
3000
0000
1111
0000
0000
0000
0100
,
0000
1000
0000
0001
0001
0000
0001
0100
0000
0100
0000
1000
0000
0000
0000
0100
,
0000
1000
0000
0001
0001
0000
0001
0100
0000
0000
0000
1000
0000
0000
0000
0100
,
0000
1000
0000
0001
0001
0000
0001
0100
0000
0100
0000
1000
0000
0000
0000
0100
,
0000
1000
0000
0001
0001
0000
0001
0100
0000
0000
0000
1000
0000
0000
0000
0100
,
0000
1000
0000
0001
0001
0000
0001
0100
0000
0100
0000
1000
0000
0000
0000
0100
,
0000
1000
0000
0001
0001
0000
0001
0100
0000
0000
0000
1000
0000
0000
0000
0100
,
0000
1000
0000
0001
0001
0000
0001
0100
0000
0000
0000
0222
0000
0000
0000
0000
,
0000
0000
0000
0000
0000
0000
0000
0000
0000
0000
0000
0333
0000
0000
0000
0000
;
